تبلیغات :
پرسانِش - نرم افزار جادویی آموزش زبان انگلیسی با فیلم های زبان اصلی
آکوستیک ، فوم شانه تخم مرغی، صداگیر ماینر ، یونولیت
خرید ویپ
دستگاه جوجه کشی حرفه ای
فروش آنلاین لباس کودک
خرید فالوور ایرانی
خرید فالوور اینستاگرام
خرید ممبر تلگرام

[ + افزودن آگهی متنی جدید ]




صفحه 139 از 141 اولاول ... 3989129135136137138139140141 آخرآخر
نمايش نتايج 1,381 به 1,390 از 1406

نام تاپيک: سوالات و حل مشکلات در مورد فایل‏های تصویری و فیلمهای دانلودی

  1. #1381
    حـــــرفـه ای B3HZ@D's Avatar
    تاريخ عضويت
    Jan 2007
    پست ها
    11,611

    پيش فرض

    اگر پلیر و نرم افزار پخش کننده فایل ویدئویی برای شما مهم نیست میتونین از Power DVD برای پخش این فایل ها استفاده کنین .

  2. 2 کاربر از B3HZ@D بخاطر این مطلب مفید تشکر کرده اند


  3. #1382
    عضو تیم زیرنویس فارسی taghi_ramzi's Avatar
    تاريخ عضويت
    Mar 2005
    پست ها
    3,975

    پيش فرض

    به احتمال زياد مشكل از كدكه
    يه كدك جديد نصب كنيد درست ميشه انشالله.

  4. 2 کاربر از taghi_ramzi بخاطر این مطلب مفید تشکر کرده اند


  5. #1383
    کاربر فعال انجمن هنر هفتم mehdi30nema's Avatar
    تاريخ عضويت
    Aug 2007
    محل سكونت
    تهران
    پست ها
    5,891

    پيش فرض

    اگر پلیر و نرم افزار پخش کننده فایل ویدئویی برای شما مهم نیست میتونین از Power DVD برای پخش این فایل ها استفاده کنین .
    به جز power dvd از چیز دیگه ایی میتونم استفاده کنم ؟ با power dvd اصلا حال نمیکنم .

  6. #1384
    حـــــرفـه ای B3HZ@D's Avatar
    تاريخ عضويت
    Jan 2007
    پست ها
    11,611

    پيش فرض

    از پلیرهایی مثل Splash pro , Aiseesoft Blu-ray Player و اگه اشتباه نکنم VLC player هم میتونه این فرمت رو پخش کنه .

  7. 2 کاربر از B3HZ@D بخاطر این مطلب مفید تشکر کرده اند


  8. #1385
    حـــــرفـه ای Ship Storm's Avatar
    تاريخ عضويت
    Jan 2005
    محل سكونت
    IRAN - ALBORZ وضعیت فعلی: Intelligent Processing
    پست ها
    15,454

    پيش فرض

    سلام
    یک کلیپ تصویری دانلود کردم نمیدونم چرا صداش پخش نمیشه

    اخرین نسخه K-Lite Mega Codeck Pack رو هم نصب کردم
    نرم افزار VLC رو هم نصب کردم بازم پخش نکرد
    یکسری کدک بود اونارو هم نصب کردم بازم نشد
    مشخصات فایل تصویرری اینه :

    General
    Complete name : C:\Users\Hamed\Downloads\Video\Esfandiyar_Masti(mo rimo.ir).mkv
    Format : WebM
    Format version : Version 2
    File size : 48.3 MiB
    Duration : 3mn 15s
    Overall bit rate : 2 079 Kbps
    Writing application : google
    Writing library : google


    Video
    ID : 1
    Format : VP9
    Codec ID : V_VP9
    Duration : 3mn 15s
    Bit rate : 1 989 Kbps
    Width : 1 920 pixels
    Height : 1 080 pixels
    Display aspect ratio : 16:9
    Frame rate mode : Constant
    Frame rate : 25.000 fps
    Bits/(Pixel*Frame) : 0.038
    Stream size : 46.3 MiB (96%)
    Language : English
    Default : Yes
    Forced : No


    کسی راه حلی میدونه واسه این مشکل ؟

  9. #1386
    کاربر فعال انجمن لپ تاپ و بُعد نرم‌افزاری انجمن هنر هفتم
    تاريخ عضويت
    Jun 2008
    پست ها
    3,306

    پيش فرض

    سلام
    یک کلیپ تصویری دانلود کردم نمیدونم چرا صداش پخش نمیشه

    اخرین نسخه K-Lite Mega Codeck Pack رو هم نصب کردم
    نرم افزار VLC رو هم نصب کردم بازم پخش نکرد
    یکسری کدک بود اونارو هم نصب کردم بازم نشد
    مشخصات فایل تصویرری اینه :

    General
    Complete name : C:\Users\Hamed\Downloads\Video\Esfandiyar_Masti(mo rimo.ir).mkv
    Format : WebM
    Format version : Version 2
    File size : 48.3 MiB
    Duration : 3mn 15s
    Overall bit rate : 2 079 Kbps
    Writing application : google
    Writing library : google


    Video
    ID : 1
    Format : VP9
    Codec ID : V_VP9
    Duration : 3mn 15s
    Bit rate : 1 989 Kbps
    Width : 1 920 pixels
    Height : 1 080 pixels
    Display aspect ratio : 16:9
    Frame rate mode : Constant
    Frame rate : 25.000 fps
    Bits/(Pixel*Frame) : 0.038
    Stream size : 46.3 MiB (96%)
    Language : English
    Default : Yes
    Forced : No


    کسی راه حلی میدونه واسه این مشکل ؟
    دوست عزیز فایلت که اصلا صدا نداره! یا مشخصات صدایش را کپی نکردی؟
    اگر مشخصاتش همینه و تگ Audio نداره، یعنی کلا فیلمت صدا نداره.

  10. #1387
    حـــــرفـه ای Ship Storm's Avatar
    تاريخ عضويت
    Jan 2005
    محل سكونت
    IRAN - ALBORZ وضعیت فعلی: Intelligent Processing
    پست ها
    15,454

    پيش فرض

    دوست عزیز فایلت که اصلا صدا نداره! یا مشخصات صدایش را کپی نکردی؟
    اگر مشخصاتش همینه و تگ Audio نداره، یعنی کلا فیلمت صدا نداره.

    از اینجا دانلود کردم
    [ برای مشاهده لینک ، با نام کاربری خود وارد شوید یا ثبت نام کنید ]
    نمیدونم چطویه مگه میشه کلیپ تصویری بدن بیرون صدا نداشته باشه ؟

  11. #1388
    در آغاز فعالیت
    تاريخ عضويت
    Sep 2011
    پست ها
    4

    پيش فرض

    با سلام
    دستگاه من oscar هست. گزینه Rcord as Scramble نداره. با نرم افزار هم تبدیل کردم باز رو کامپیوتر اجرا نشد.
    ممنون میشوم راهنمایی کنید.

  12. #1389
    در آغاز فعالیت
    تاريخ عضويت
    Sep 2011
    پست ها
    4

    پيش فرض

    سلام امید خان دستگاه شما از سی پی یو ali استفاده میکند که متاسفانه از قانون مسخره کپی رایت مربوط به شبکه های شیرینگ پیروی می کند ..برنامه ای براتون قرار میدم که ان را در درایو d از حالت ریپ خارج میکنید فایل ضبط شده رو به000.ts ( البته هرکاری میکنم جایه ts و 000 جا به جا میشه ) تغییر نام یدید و درون فولدر برنامه دانلود شده کپی کنید یعنی مسیر فایل رکورد شده باید به این صورت باشد D:/StarMax Support/000.ts ( البته مسیر فایل رو خودتون میتونید در فایل کانفیگ تغییر بدین )

    وبعد برنامه رو اجرا کنید در منو دستگاه هم از قبل این گزینه ها تنظیم باشد در منوی PVR Setting باید گزینه Rcord as Scramble را در حالت NO تنظیم کنید. و Type Record همtsتنظیم شود.اگر جواب نگرفتید در پیام خصوصی در خدمتم موفق باشید

    [ برای مشاهده لینک ، با نام کاربری خود وارد شوید یا ثبت نام کنید ]
    با سلام
    دستگاه من oscar هست. گزینه Rcord as Scramble نداره. با نرم افزار هم تبدیل کردم باز رو کامپیوتر اجرا نشد.
    ممنون میشوم راهنمایی کنید.

  13. #1390
    داره خودمونی میشه
    تاريخ عضويت
    Oct 2007
    پست ها
    99

    پيش فرض

    سلام دوستان
    من یه فایل تصویری که از دوربین مدار بسته بانک ظبط شده رو از بانک گرفتم و با هیچ برنامه ای نمیتونم بازش کنم . فایلهای روی DVD ای که بانک بهم داده کاملا سالمه چون دوباره که بردم بانک گذاشتم رو دستگاهشون نشون داد. خودشونم نمیدونن با چه نرم افزاری میشه بازش کرد فقط یکی از کارکنای اونجا شماره یه بندخدایی رو توی شعبه اصلی استان داد که نبود و شنبه تشریف میارن حالا میخواستم ببینم کسی میتونه راهنمایی کنه. با VLC که بازش میکنم پیغام خطای کدک C264 میده که هرچی توی گوگل سرچ میکنم فقط X264 و H264 رو نشون میده اما چیزی به اسم C264 نیست یه کدک هم از یه سایت نصب کردم جواب نداد نرم افزار های VLC,Km player,Quick Time,Playback,MediaCoder,Security Monitor pro رو هم نصب کردم بازم جواب نداد.

Thread Information

Users Browsing this Thread

هم اکنون 1 کاربر در حال مشاهده این تاپیک میباشد. (0 کاربر عضو شده و 1 مهمان)

User Tag List

برچسب های این موضوع

قوانين ايجاد تاپيک در انجمن

  • شما نمی توانید تاپیک ایحاد کنید
  • شما نمی توانید پاسخی ارسال کنید
  • شما نمی توانید فایل پیوست کنید
  • شما نمی توانید پاسخ خود را ویرایش کنید
  •