تبلیغات :
آی تی قیمت
دوربین مداربسته
لوازم جانبی موبایل
دستگاه جوجه کشی خانگی
زیرساخت مرکز داده
دستگاه جوجه کشی
ماشین آلات بسته بندی
جراحی زیبایی بینی
سیم و کابل
[ سفارش آگهی متنی ]
















+ جواب دادن به اين بحث
صفحه 1 از 2 12 آخرآخر
نمايش نتايج 1 به 10 از 18

نام تاپيک: نداشتن صدا در بعضی فیلم ها

  1. #1
    اگه نباشه جاش خالی می مونه davood.2008's Avatar
    تاريخ عضويت
    Sep 2009
    محل سكونت
    در پناه او...
    پست ها
    430

    پيش فرض نداشتن صدا در بعضی فیلم ها

    سلام دوستان
    خوبین؟

    من یه چندتا فیلم دارم که وقتی اون ها رو اجرا میکنم صدای فیلم در نمی یاد
    اخرین نسخه k-lite رو هم نصب کردم اما موقع پخش این ارور رو میده:



    در ضمن تنها تو بعضی فیلم ها اینطوریه و تو بقیه کارهای ویندوز مثل بازی موسیقی و 95 درصد فیلم ها مشکلی ندارم میشه راهنمایی کنید مشکل از کجاست؟


  2. #2
    حـــــرفـه ای ebicross's Avatar
    تاريخ عضويت
    Oct 2007
    محل سكونت
    مـشـهـد
    پست ها
    3,526

    پيش فرض

    Core Vorbis Codec رو دانلود و نصب کنید. مشکل بعضیها رو حل کرده:

    از اینجا:
    کد:
    برای مشاهده محتوا ، لطفا وارد شوید یا ثبت نام کنید
    یا اینجا:
    کد:
    برای مشاهده محتوا ، لطفا وارد شوید یا ثبت نام کنید

  3. 2 کاربر از ebicross بخاطر این مطلب مفید تشکر کرده اند


  4. #3
    اگه نباشه جاش خالی می مونه davood.2008's Avatar
    تاريخ عضويت
    Sep 2009
    محل سكونت
    در پناه او...
    پست ها
    430

    پيش فرض

    سلام
    مرسی از کمک اما تغییری نرزد و همچنان این پنجره باز میشه و فیلم صدا نداره............

    اصلا این اشکال ماله چیه ؟ این ارور چی رو نشون میده؟

    منتظرم دوستان...

  5. #4
    ناظر انجمن اینترنت و شبکه fanoostalaei's Avatar
    تاريخ عضويت
    Oct 2010
    محل سكونت
    Great & Lovely Tabriz
    پست ها
    9,526

    پيش فرض

    سلام دوست من.
    شما این فیلم رو با نرم افزار دیگه ای تست کردی؟ مثلا KM player.
    تست کنید اگه باز شد که هیچ اگه نشد به نظر من ایراد از کدکشه.یا مثلا خود فایل ایراد داره تست کنید معلوم میشه.

  6. #5
    حـــــرفـه ای ebicross's Avatar
    تاريخ عضويت
    Oct 2007
    محل سكونت
    مـشـهـد
    پست ها
    3,526

    پيش فرض

    سلام
    مرسی از کمک اما تغییری نرزد و همچنان این پنجره باز میشه و فیلم صدا نداره............

    اصلا این اشکال ماله چیه ؟ این ارور چی رو نشون میده؟

    منتظرم دوستان...
    مشکل همونطور که پیغام نشون میده از Codec صوتی هستش که نمیتونه فرمت MKV شما رو Decode کنه.
    ببینید روی فایلی که مشکل داره راست کلیک کنید و Media Info رو بزنید. بعد روی فایل سالم MKV اگر دارید راست کلیک و Media Info بزنید و چک کنید کدک های صوتیشون چه تفاوتی دارند. نوع کدک صوتی رو بنویسید تا لینک دانلودشو بزارم.

    البته اگر آخرین نسخه ی K-lite نصب باشه نباید مشکلی پیش بیاد.
    کد:
    برای مشاهده محتوا ، لطفا وارد شوید یا ثبت نام کنید

  7. #6
    اگه نباشه جاش خالی می مونه davood.2008's Avatar
    تاريخ عضويت
    Sep 2009
    محل سكونت
    در پناه او...
    پست ها
    430

    پيش فرض

    سلام با kmplayer هم تست کردم فیده نداشت

    این قسمت media info دوفیلم:

    توضیحات مربوط به قسمت صدای فیلم خراب که صدا نداره:
    Audio
    ID : 1
    Format : Cooker
    Codec ID : A_REAL/COOK
    Codec ID/Info : Real Audio Cook Codec (codename: Gecko)
    Duration : 1h 24mn
    Bit rate : 64.1 Kbps
    Channel(s) : 2 channels
    Sampling rate : 44.1 KHz
    Bit depth : 16 bits
    Delay relative to video : -40ms
    Stream size : 38.8 MiB (12%)
    Language : English
    توضیحات صدای یه فیلم سالم :

    Audio
    ID : 2
    Format : MPEG Audio
    Format version : Version 1
    Format profile : Layer 2
    Codec ID : A_MPEG/L2
    Codec ID/Hint : MP2
    Duration : 1h 10mn
    Bit rate mode : Constant
    Bit rate : 128 Kbps
    Channel(s) : 2 channels
    Sampling rate : 44.1 KHz
    Compression mode : Lossy
    Stream size : 64.4 MiB (28%)
    Language : English

  8. #7
    حـــــرفـه ای ebicross's Avatar
    تاريخ عضويت
    Oct 2007
    محل سكونت
    مـشـهـد
    پست ها
    3,526

    پيش فرض

    در استارت بزنید:
    ffdshow audio

    و در سربرگ Codecs گزینه ی Cook رو Enable کنید.
    امیدوارم مشکلتون حل بشه.

  9. 3 کاربر از ebicross بخاطر این مطلب مفید تشکر کرده اند


  10. #8
    اگه نباشه جاش خالی می مونه davood.2008's Avatar
    تاريخ عضويت
    Sep 2009
    محل سكونت
    در پناه او...
    پست ها
    430

    پيش فرض

    در استارت بزنید:
    ffdshow audio

    و در سربرگ Codecs گزینه ی Cook رو Enable کنید.
    امیدوارم مشکلتون حل بشه.

    یه دنیا ممنون
    مشکلم حل شد

  11. #9
    در آغاز فعالیت
    تاريخ عضويت
    May 2009
    پست ها
    8

    پيش فرض

    من همین مشکل رو توی ویندوز xp دارم .
    میشه کمکم کنید ؟

  12. #10
    حـــــرفـه ای ebicross's Avatar
    تاريخ عضويت
    Oct 2007
    محل سكونت
    مـشـهـد
    پست ها
    3,526

    پيش فرض

    من همین مشکل رو توی ویندوز xp دارم .
    میشه کمکم کنید ؟
    اگر دقیقا همینه که باید از روش بالا استفاده کنید فقط به جای اینکه در استارت بزنید ffdshow audio باید در All Programs به k-Lite Codec Pack وارد بشید و بعد به Configuration برید و بعد ffdshow audio decoder رو باز کنید.
    بعدش هم گزینه ی مورد نظر رو فعال کنید.

  13. 2 کاربر از ebicross بخاطر این مطلب مفید تشکر کرده اند


+ جواب دادن به اين بحث
صفحه 1 از 2 12 آخرآخر

جواب سريع جواب سريع


* چنانچه از قبل در انجمن ثبت نام کرده اید و دارای نام کاربری هستید ، ابتدا وارد سایت شوید ( این فرم مخصوص ارسال پاسخ توسط کاربران میهمان است )

پایتخت ایران چه نام دارد ؟

Thread Information

Users Browsing this Thread

هم اکنون 1 کاربر در حال مشاهده این تاپیک میباشد. (0 کاربر عضو شده و 1 مهمان)

User Tag List

به اشتراک بگذارید

به اشتراک بگذارید

قوانين ايجاد تاپيک در انجمن

  • شما می توانید تاپیک جدید ایجاد کنید
  • شما می توانید پاسخ ارسال کنید
  • شما نمی توانید فایل پیوست کنید
  • شما نمی توانید پاسخ خود را ویرایش کنید
  •