تبلیغات :
خرید قاب گوشی
دستگاه جوجه کشی خانگی
دستگاه جوجه کشی
ماشین آلات بسته بندی
جراحی زیبایی بینی
سیم و کابل
[ سفارش آگهی متنی ]
















+ جواب دادن به اين بحث
صفحه 2 از 2 اولاول 12
نمايش نتايج 11 به 18 از 18

نام تاپيک: نداشتن صدا در بعضی فیلم ها

  1. #11
    پروفشنال L.O.N.E.L.Y's Avatar
    تاريخ عضويت
    Aug 2011
    پست ها
    580

    پيش فرض

    من در نرم افزار km بعضی فیلم و سریال هام که رزولوشن پایینی دارن این مشکل رو دارم و هر چقدر هم تنظیمات پلیر رو ریست میکنم به نتیجه نمیرسم با چند پلیر مختلف هم امتحان کردم..مطمئن هم هستم که این فایل های تصویری صدا دارن چون قبلا تستشون کردم..این نرم افزار windows.7.codec.pack رو هم نصب کردم ولی باز مشکل برطرف نشده
    کسی میتونه کمک کنه.؟


  2. #12
    پروفشنال L.O.N.E.L.Y's Avatar
    تاريخ عضويت
    Aug 2011
    پست ها
    580

    پيش فرض

    من در نرم افزار km بعضی فیلم و سریال هام که رزولوشن پایینی دارن این مشکل رو دارم و هر چقدر هم تنظیمات پلیر رو ریست میکنم به نتیجه نمیرسم با چند پلیر مختلف هم امتحان کردم..مطمئن هم هستم که این فایل های تصویری صدا دارن چون قبلا تستشون کردم..این نرم افزار windows.7.codec.pack رو هم نصب کردم ولی باز مشکل برطرف نشده
    کسی میتونه کمک کنه.؟
    دوستان کسی نتونست کمک کنه..؟

  3. #13
    داره خودمونی میشه eeeeeeehsan's Avatar
    تاريخ عضويت
    Jun 2011
    پست ها
    197

    پيش فرض

    Core Vorbis Codec رو دانلود و نصب کنید. مشکل بعضیها رو حل کرده:

    از اینجا:
    کد:
    برای مشاهده محتوا ، لطفا وارد شوید یا ثبت نام کنید
    یا اینجا:
    کد:
    برای مشاهده محتوا ، لطفا وارد شوید یا ثبت نام کنید
    داداش ایشالا.. دست به خاکستر میزنی طلا بشه، من مشکل جلو عقب بودن صدا رو داشتم با kmp با این کدک حل شد.
    یه دنیا ممنون

  4. #14
    در آغاز فعالیت
    تاريخ عضويت
    Nov 2014
    پست ها
    2

    پيش فرض

    سلام دوست عزیز من هم همچین مشکلی دارم با این تفاوت که اروری نمیکه چه باید بکنم اینم مدیا اینفوشه:

    hq-tabande517-1
    General
    Complete name : hq-tabande517-1
    Format : MPEG-4
    Format profile : Base Media
    Codec ID : isom
    File size : 201 MiB
    Duration : 1h 8mn
    Overall bit rate : 412 Kbps
    Encoded date : UTC 2013-02-22 08:58:26
    Tagged date : UTC 2013-02-22 08:58:26
    Video #1
    Format : AVC
    Format/Info : Advanced Video Codec
    Format profile : High@L3.0
    Format settings, CABAC : Yes
    Format settings, ReFrames : 4 frames
    Codec ID : avc1
    Codec ID/Info : Advanced Video Coding
    Duration : 1h 8mn
    Bit rate mode : Variable
    Bit rate : 330 Kbps
    Maximum bit rate : 1 261 Kbps
    Width : 848 pixels
    Height : 480 pixels
    Display aspect ratio : 16/9
    Frame rate mode : Constant
    Frame rate : 25.000 fps
    Resolution : 24 bits
    Colorimetry : 40
    Scan type : Progressive
    Bits/(Pixel*Frame) : 0.032
    Stream size : 161 MiB (80%)
    Writing library : x264 core 120
    Encoding settings : cabac=1 / ref=3 / deblock=1:0:0 / analyse=0x3:0x113 / me=hex / subme=7 / psy=1 / psy_rd=1.00:0.00 / mixed_ref=1 / me_range=16 / chroma_me=1 / trellis=1 / 8x8dct=1 / cqm=0 / deadzone=21,11 / fast_pskip=1 / chroma_qp_offset=-2 / threads=6 / sliced_threads=0 / nr=0 / decimate=1 / interlaced=0 / bluray_compat=0 / constrained_intra=0 / bframes=3 / b_pyramid=2 / b_adapt=1 / b_bias=0 / direct=1 / weightb=1 / open_gop=0 / weightp=2 / keyint=250 / keyint_min=25 / scenecut=40 / intra_refresh=0 / rc_lookahead=40 / rc=2pass / mbtree=1 / bitrate=330 / ratetol=1.0 / qcomp=0.60 / qpmin=3 / qpmax=69 / qpstep=4 / cplxblur=20.0 / qblur=0.5 / vbv_maxrate=700 / vbv_bufsize=1000 / nal_hrd=none / ip_ratio=1.40 / aq=1:1.00
    Encoded date : UTC 2013-02-22 08:58:18
    Tagged date : UTC 2013-02-22 08:58:30
    Audio #2
    Format : AAC
    Format/Info : Advanced Audio Codec
    Format version : Version 4
    Format profile : LC
    Format settings, SBR : Yes
    Format settings, PS : No
    Codec ID : 40
    Duration : 1h 8mn
    Bit rate mode : Variable
    Bit rate : 78.8 Kbps
    Maximum bit rate : 85.8 Kbps
    Channel(s) : 2 channels
    Channel positions : L R
    Sampling rate : 48.0 KHz
    Resolution : 16 bits
    Stream size : 38.4 MiB (19%)
    Encoded date : UTC 2013-02-22 08:58:28
    Tagged date : UTC 2013-02-22 08:58:30

  5. #15
    در آغاز فعالیت
    تاريخ عضويت
    Nov 2015
    پست ها
    19

    پيش فرض

    سلام
    من چند وقتی هست که پلیرهام ریخته به هم و صدا رو پخش نمیکنه از اونجا که من با کام پلیر کار میکنم خیلی ذهنم درگیر این موضوع شده که چرا فیلمها و فایل های صوتی در این نرم افزار صدا نداره هرکاری که بود کردم از آپدیت کارت صدا گرفته ،تنظیمات خود کام پلیر ،حتی آپدیت کارت گرافیک ولی مشکل هنوز پا برجاست لطفا اگه کسی میدونه مشکل چیه کمک کنه ...سپاس


    ورژن های نصب شده 3.9.1.136 و 4.1.5.6

  6. #16
    کاربر فعال انجمن گنولینوکس Ali_RNT's Avatar
    تاريخ عضويت
    Jul 2013
    محل سكونت
    home/ali_rnt/
    پست ها
    1,328

    پيش فرض

    سلام
    من چند وقتی هست که پلیرهام ریخته به هم و صدا رو پخش نمیکنه از اونجا که من با کام پلیر کار میکنم خیلی ذهنم درگیر این موضوع شده که چرا فیلمها و فایل های صوتی در این نرم افزار صدا نداره هرکاری که بود کردم از آپدیت کارت صدا گرفته ،تنظیمات خود کام پلیر ،حتی آپدیت کارت گرافیک ولی مشکل هنوز پا برجاست لطفا اگه کسی میدونه مشکل چیه کمک کنه ...سپاس


    ورژن های نصب شده 3.9.1.136 و 4.1.5.6
    با یک پلیر دیگه هم تست کنید. اگر نشد از کدک پک (codec pack) استفاده کنید احتمالا مشکل برطرف میشه. معروف ترینشون K-Lite codec pack هست که با یه سرچ ساده پیدا میکنید. بعد از نصب کدک پک کامپیوتر رو ریبوت کنید و بعد با KMPlayer امتحان کنید.

  7. #17
    در آغاز فعالیت
    تاريخ عضويت
    Nov 2015
    پست ها
    19

    پيش فرض

    با یک پلیر دیگه هم تست کنید. اگر نشد از کدک پک (codec pack) استفاده کنید احتمالا مشکل برطرف میشه. معروف ترینشون K-Lite codec pack هست که با یه سرچ ساده پیدا میکنید. بعد از نصب کدک پک کامپیوتر رو ریبوت کنید و بعد با KMPlayer امتحان کنید.
    من انواع کدک پک رو نصب کردم
    ویندوز مدیا پلیر بعضی از اونها رو باز میکنه (فایلهایی که با پسوند mpeg هستند ) ولی کام پلیر و جت آدیو باز نمیکنه

  8. #18
    داره خودمونی میشه
    تاريخ عضويت
    Sep 2007
    پست ها
    33

    پيش فرض

    منم مشکل صدا داشتم سیستمم صدا داشت فقط با km صدا نداشت فیلمهام.اگه حوصله نداری بهتره پلیر vlc رو نصب کنی اگه حوصله هم داری مثل من باید یکمی تنظیمات رو تو km تغییر بدی چون من کدک هم نصب کردم فرقی نکرد.بعد زدن کلید f2 و رفتن به تنظیمات من رفتم به audio proceceing بعدش یکم تغییرات دادم تا صدا برگشت.تو قسمت render هم تو کانفیگ من اسپیکرم رو دیفالت گذاشتم مشکل حل شد.

+ جواب دادن به اين بحث
صفحه 2 از 2 اولاول 12

جواب سريع جواب سريع


* چنانچه از قبل در انجمن ثبت نام کرده اید و دارای نام کاربری هستید ، ابتدا وارد سایت شوید ( این فرم مخصوص ارسال پاسخ توسط کاربران میهمان است )

پایتخت ایران چه نام دارد ؟

Thread Information

Users Browsing this Thread

هم اکنون 1 کاربر در حال مشاهده این تاپیک میباشد. (0 کاربر عضو شده و 1 مهمان)

User Tag List

به اشتراک بگذارید

به اشتراک بگذارید

قوانين ايجاد تاپيک در انجمن

  • شما می توانید تاپیک جدید ایجاد کنید
  • شما می توانید پاسخ ارسال کنید
  • شما نمی توانید فایل پیوست کنید
  • شما نمی توانید پاسخ خود را ویرایش کنید
  •